Index Of Zayn Mp3

| 3 hrs 45 mins | 520 Mb Tracklist: Drake - Toosie Slide Dua Lipa - Don't Start Now Milky Chance - Stolen Dance Omi - Cheerleader (Felix Jaehn Remix) (Radio Edit) J Balvin; J. Original Music Action. doc, games, apps for android and iphone and books in pdf format Simple and Fast Search in ZippyShare. Search Latest Updates Movie Index. Via Crucis S 53 Station I Jesus Wird Zum Tode Verdammt Mp3. Watch Videos in Mp4, Listen in Mp3. ch has been informing visitors about topics such as Music Downloader for MP3, MP3 Donwold and MP3SKULL Free Download. DJ ViNOSH - South Africa 55 25. Liam Payne 2010-Louis Tomlinson 2010-Songs; Artistfacts ®. download song zayn malik a whole new world. Tell us what you love about it using the hashtag #1DHistory. The day you've all been waiting for is finally here, the guys have dropped the music video for History! Capturing some of the best memories from the past five years, History charts the band's story so far. It was written by Zayn himself along with Iliana Nedialkova, Henrique Andrade and Alexandre Bursztyn, being the later two also the producer and co-producer respectively. Maroon 5 - Memories ( Live On The Ellen Degeneres Show 2019 ) [ Audio Fixed Up ] mp3. Stafaband adalah tempat download lagu barat, lagu indonesia, lagu KPOP, lagu religi, dll. He is signed to RCA records and Right Hand Music Group. Don't like this video? Sign in to make your opinion count. Listen new Hollywood Songs of 2019 & 2018. RCA (RCA Records: simple 'RCA' or 'RCA' with lightning bolt in circle): Dusk Till Dawn (radio edit) Digital Media: 1. Watch Online or Download Ibi Giga By Segun Ogungbe latest nigerian nollywood movie. Maher zain's mp3 naat sharif has been made available for our respected visitors. Zayn Malik born 12 January 1993. Publication date 2018-03-20 Usage Public Domain Mark 1. com, indianexpress. UPDATE: Zayn's demo with Naughty Boy, "I Won't Mind," was removed from SoundCloud less than 12 hours after it posted. The interactive. THINGS TO DO IN THE DENVER AREA. 36 Million at KeywordSpace. Official music video for "Story of My Life" by One Direction. Chris Brown Undecided. Zayn has shared a video for his new song "Let Me. If you're looking to buy lossless music in FLAC format, from indie to classical to jazz, here are our favorite sites. Disclaimer: I do not own One Direction, or the ideas of this book, nor am I making any money by publishing the story. Latest Video Song 2017. With Harry Styles, Louis Tomlinson, Zayn Malik, Liam Payne. Rob Van Dam – One of a Kind WWE Theme Song Download. The album Let Me of Zayn is here. We are committed to continually raising the bar for cost effective record retrieval and more thorough analysis and summarization. Born and raised in Bradford, West Yorkshire, Malik auditioned as a solo contestant for the British music competition The X Factor in 2010. Taxiwala (Taxiwaala) full HD movie leaked on torrents: Free download to affect box office collection The full movie of Taxiwala (Taxiwaala) starring Vijay Devarakonda has been leaked on the torrent sites on its opening day and its alleged free download is likely to affect its collection at the box office. Havana (feat. Caltonic SA – Yano Master Vol 1 Album MP3 Download Caltonic SA has released his last project for the year 2019, dropping his new album, Yano Master Vol 1. First of all im not 12 years old. Tell us what you love about it using the hashtag #1DHistory. duration: 1:02:23 - size: 87. com is completely free, reliable and popular way to store files online. Zayn Malik - Wikipedia. Watch hit English Music collection of latest & upcoming movies. British boy band that topped all others with record-breaking singles, albums, and concerts. DOWNLOAD Tyga - Girls Have Fun Ft. Grayslake Boy, Dad Have Trip To See Everton F. Here in the San Basilio neighborhood of the city’s old town, the densely packed whitewashed houses look out onto courtyards and patios embellished by hanging flowerpots and trailing plants. Hometown High-Q. The 29-year-old entertainer just dropped his new single “Undecided” – which you can check out below. Listen to trailer music, OST, original score, and the full list of popular songs in the film. The interactive. Jack Antonoff / Sam Dew / Taylor Swift. Get Offline Free Music Downloader! 10x Faster; Share on Facebook. Download mp3 naats and nasheeds by Maher zain in Highest quality possible below. info - Listen and download any song you want from Mp3Clem's well organised music archive! Listen, enjoy, share the music with your friends!. Free Beats from YourBeats. Start listening now!. We only index and link to content provided by other sites. View credits, reviews, tracks and shop for the 2016 320 kbps File release of Mind Of Mine on Discogs. 50+ videos Play all Mix - ZAYN, Zhavia Ward - A Whole New World (End Title) (From "Aladdin") YouTube Beauty and the Beast (From "Beauty and the Beast"/Official Video) - Duration: 4:01. omg its been 7 years since this album was released. ÷ is a ruthlessly melodic run through a staggering array of styles, further proof that Sheeran is a singer/songwriter for these musical times: a balladeer who can blur the lines between Celtic folk and hip-hop (“Galway Girl”) just as readily as he can summon big, festival-ready. Today Was a Fairytale. Here in the San Basilio neighborhood of the city’s old town, the densely packed whitewashed houses look out onto courtyards and patios embellished by hanging flowerpots and trailing plants. Download TAYLOR SWIFT music for free. Happy Cat Disco - Never A Cruel 365 (Zedd & Katy Perry vs. Eminem drops new album titled Kamikaze. Hometown High-Q. Not all the chords may. View credits, reviews, tracks and shop for the 2016 320 kbps File release of Mind Of Mine on Discogs. Bekijk het profiel van Andy Iman op LinkedIn, de grootste professionele community ter wereld. Download Lagu Download Lagu ZAYN - Still Got Time Feat. 01 Lukas Graham - 7 Years. Be sure to subscribe to my site updates and/or check back regularly to see the latest Spotify statistics. On our site you can download mp3 songs free. Yiddish was at one time the international language of Ashkenazic Jews (the Jews of Central and Eastern Europe and their descendants). Zayn has shared a video for his new song “Let Me. Who is your celebrity crush? 4. независимые 2) здесь: по водным, речным порогам. Local employers posted 122 new jobs over the past week and 640 in. The track was released by RCA Records on 23 May 2018, as the second single from Zayn's second studio album Icarus Falls (2018). Albums de Zayn Malik Mind of Mine Singles Let Me , Entertainer , Sour Diesel , Too Much , Fingers , No Candle No Light. DOWNLOAD LAGU (MP3) A Whole New World OST Aladdin Versi Zayn Malik & Isyana Beserta Video dan Lirik Lagu. When there is a damaged backlink we're not in control of it. Contact Us. "Entertainer" is a song recorded by English singer and songwriter ZAYN. 85 Million at KeywordSpace. Andy heeft 3 functies op zijn of haar profiel. More than. Vol-25 ALBUM COMPLETO', el playlist tiene una duración de 9 horas 51 minutos 20 segundos, calidad 192 kbps y 320 kbps. Fx In WWE Theme Songs. Via Crucis S 53 Station I Jesus Wird Zum Tode Verdammt Mp3. Azis MMa 2012 Mp3. Night Raid (Part 1) 71 seconds 181 bpm. mp3 Robin Schulz & Hugel I Don't Wanna Live Forever (Fifty Shades Darker) (From 'Fifty Shades Darker Original Motion Picture Soundtrack '). Take It Off (TiO). 1 Singles 2. Download lagu paling lengkap, cepat, mudah dan terbaru. Adding Shade to The MP3 Player. "Can't Help Falling in Love" is one of Elvis Presley's. Zayn Malik has officially released his debut solo album Mind of Mine and you can stream every song right here thanks to Spotify!. Born on May 13, 1981, as Karenjit Kaur Vohra, Sunny Leone. Aquí puedes escuchar y descargar música gratis online de tus artistas favoritos. Discover more every day. On November 14, 2017. Sunday Business Page. R3hab also posted the cover art with the following message on the same day, "10. Latest news on former One Direction bandmate Zayn Malik with more on ex-girlfriend Gigi Hadid, Twitter updates, tattoos, hair and ex-fiancée Perrie Edwards. His collaboration with Justin Timberlake, “Whatever You Like” and “Live Your Life” his collaboration with Rihanna. mp3 Download [1649. 1 Singles 2. mp3" MP3 TRACK 01 AUDIO TITLE "In My Head" PERFORMER "01 Katerina, Bluefin" INDEX 01 00:00:00 TRACK 02 AUDIO TITLE "Eternity - YouTube" PERFORMER "02 Groove Pressure" INDEX 01 04:09:00 TRACK 03 AUDIO TITLE "Someone To Love - YouTube" PERFORMER "03 BAI". neverenough-mp3-deactivated2017 waiting for a pic of zayn with his hair out is like when you reach the top of a hill on a roller. View Profile See their activity. mel; just your typical aussie american obsessed with drinking too much coffee, watching too many shows, staying up too late and having too much fun ( ♥‿♥). of colour in the band, is someone. #1 rated music site. Notes is designed for whatever’s on your mind. Cardi B) Back To You (Anki Remix) Back To You (Joey Pecoraro Remix) Back To You (Riton & Kah-Lo Remix) Back To You (From 13 Reasons Why – Season 2 Soundtrack) Wolves (Sneek Remix) Wolves (Total Ape Remix) Wolves (MOTi Remix). Phora is a rising 22-year old artist out of Anaheim, California who's been on our radar for the past couple years now, but only recently has he started to get his due shine following his deal with Warner Bros this past Spring. Your Pittsburgh. Sign in to add files to this folder. NICKI MINAJ - KISSING STRANGERS TCTS feat Sage the Gemini Kelis - Do It Like Me (Icy Feet) c8b. Popular Artists. Billions of MP3 Songs free Download. Google has found out that some cheap smartphones are loaded with Triada malware straight out of the box. Download daftar kumpulan HQ audio MP3 dari Zayn Let Me dengan mudah dan gratis!. 2:59 DOWNLOAD PLAY. Simple, Enter the keyword into the search box, Wait for a few seconds to finish processing the data, choose songs to download. Listen to trailer music, OST, original score, and the full list of popular songs in the film. COM or Buy It on The Store. He has had ten Billboard Hot 100 Top 10 singles, three of which reached number one - “My Love”. Classroom Weather. Miguel) Matt Nash - Know My Love Paramore - Hard Times DNCE ft. The project features 15 talented musicians in South Africa and is likely going to be a chart topper. Zayn Malik) 998. Zayn Malik has officially released his debut solo album Mind of Mine and you can stream every song right here thanks to Spotify!. mariamachowska Mp3 Database 7:28. 50+ videos Play all Mix - ZAYN, Zhavia Ward - A Whole New World (End Title) (From "Aladdin") YouTube Beauty and the Beast (From "Beauty and the Beast"/Official Video) - Duration: 4:01. Isometric Diskette Exercise 4 12. pdf 30M 5 Technologies to Watch 2006. Check the best results!. Radios, Headphones, TV Antennas, Cables & Adapters, DIY Tools & Parts, Electronics Maker Kits. His collaboration with Justin Timberlake, “Whatever You Like” and “Live Your Life” his collaboration with Rihanna. mp3: iTunes Amazon. If you have any question in New Year songs download, feel free to leave a comment below. In 2010, Malik auditioned as a solo artist for the British reality television music competition The X Factor. English-Irish boy band One Direction including Harry Styles, Niall Horan, Louis Tomlinson, Liam Payne, and ex member as of 2015 Zayn Malik have recorded material for five studio albums. SoundCloud is a music and podcast streaming platform that lets you listen to millions of songs from around the world, or upload your own. All rights to E L James. mp3 Madison Beer Despacito (Remix) (feat. Traductions et explications des paroles de chansons françaises et étrangères. Download daftar kumpulan HQ audio MP3 dari Zayn Let Me dengan mudah dan gratis!. duration: 1:02:23 - size: 87. Printing in Isometric Exercise 3. Online Play MP3, MP4 and get fast MP3, MP4 for Offline Devices free from mp3. org Zain Javadd Malik (/ ˈ m æ l ɪ k /; born 12 January 1993), known mononymously as Zayn, is an English singer and songwriter. 2013 Zayn Malik 2013. Here’s a look at the top stories people are talking about now across our network of CBS Local sites. 🎧🔊Listen and download Zayn Malik, Sia - Dusk Till Dawn (Magnitola Extended Mix) in mp3 320, WAV, FLAC. ZAYN - PILLOWTALK (Official Music Video) The Killers - The Killers Comment on Mr. Download musik, Download Mp3 Mudah dan Cepat. "Can't Help Falling in Love" is one of Elvis Presley's. Do you play any instruments? 8. Sjava - Umama Mp3 Download. AllMusic Rating. As expected the Rapper would always put up an interesting and sauce -dropping visuals that will definitely get you unconsciously body vibing to it. Stream ad-free or purchase CD's and MP3s now on Amazon. mp3: iTunes Amazon. Stafaband adalah tempat download lagu barat, lagu indonesia, lagu KPOP, lagu religi, dll. Grayslake Boy, Dad Have Trip To See Everton F. Check the best results!. The best song of Zayn Malik is here to download in mp3. 6? De ce nu iti cumperi propriul tau server? Server CS16 Krond - OVH Franta - 12 euro/luna. WWE is an integrated media organization and recognized leader in global entertainment. 1' 2020-05-05 - read more. Phora is a rising 22-year old artist out of Anaheim, California who’s been on our radar for the past couple years now, but only recently has he started to get his due shine following his deal with Warner Bros this past Spring. Harry Styles 2010-Zayn Malik 2010-2015. ZAYN - PILLOWTALK (Official Music Video) The Killers - The Killers Comment on Mr. Dapatkan semua lagu Zayn Let Me di Lebah Lagu. Listen to new music, build crates, and refine your playlists on the go. Download Lagu Terbaru Judika di LaguAZ. Tell us what you love about it using the hashtag #1DHistory. Night Raid (Full) 135 seconds 182 bpm. Check out Who (Reprise Zayn Malik - Ghostbusters 2016) by Farbwall on Amazon Music. No files in this folder. Despite such difficulties, Jordan continued to host 1. Swift shared the artwork. After being eliminated as a solo performer, he auditioned again in 2010 and was put into a group with four other contestants to form One Direction. Viviane Mrad - Yalla. Watch Videos in Mp4, Listen in Mp3. Back in June, Phora kicked off a new campaign for. Free download Taylor Swift Mp3. Oct 3, 2012 Zayn Malik, the only Muslim person. All Media Fixer All Media Fixer is a handy tool that helps you repair media files which can not be played or dragged. 2M Access. Studio Album (2) - Single (6) Dusk Till Dawn (feat. mp3, Uploaded By:: Music Lyrics, Size: 5. Our site gives you recommendations for downloading music that fits your daily listening habits. care baka na Slime & B nekopoi lol. Download daftar kumpulan HQ audio MP3 dari Zayn Let Me dengan mudah dan gratis! ZAYN - Let Me (Official Video) ZaynVEVO 12 Apr 2018. djmaza is a standout amongst the most mainstream media web indexes which seeks Mp3 music in a matter of moments. im addicted to one direction!! I love them all but my favourite's Zayn :) he's so hot and i litterally think about him all the time ! i cant stop listening to their songs, googling them for the latest goss, watching their videos on youtube, checking their twitters and instagrams and I have all their pics on my fone and computer. UPDATE: Zayn's demo with Naughty Boy, "I Won't Mind," was removed from SoundCloud less than 12 hours after it posted. Hometown High-Q. In her true style, Zonke takes a different approach to put her voice out in a perfect pop joint. Harry Styles 2010-Zayn Malik 2010-2015. 99/month, 3 months free. zayn malik. 6? De ce nu iti cumperi propriul tau server? Server CS16 Krond - OVH Franta - 12 euro/luna. Download Lagu Secondhand Serenade Fall For You Mp3 Musik Indonesia Kualitas CD Lagu Terbaru Full Album Gudang Lagu Upload Mp3 Gratis Index of mp3 Unduh Lagu Terbaru Mudah Musik Pop Band Indie Dangdut Koplo New Lagu Reggae Lagu K-Pop Korea Request Lagu Semua Ada Di UyeShare. DJ Khaled feat. mp3 Download [1578. Tell us what you love about it using the hashtag #1DHistory. The best song of Zayn Malik is here to download in mp3. In a weird corseted leather dress, complete with baroque coat, Britney shows off every curve as well as her lean legs in 2004. CBS 2: News, Weather, Sports On All Platforms. Young Thug). One Direction. Soon You'll Get Better. Luister en kijk online naar Qmusic, lees het laatste nieuws over je favoriete artiesten en mis niets van de leukste video’s van Q. index ask archive theme. Good Years – ZAYN. More than. Sjava - Umama Mp3 Download. Maher Zain is a Lebanese singer and Nasheed reciter. im addicted to one direction!! I love them all but my favourite's Zayn :) he's so hot and i litterally think about him all the time ! i cant stop listening to their songs, googling them for the latest goss, watching their videos on youtube, checking their twitters and instagrams and I have all their pics on my fone and computer. Will you still love One Direction if they became. Pay As You go also available. In 2010, Malik auditioned as a solo artist for the British reality television music competition The X Factor. 8 M de visualizaciones, actualizado el 28 de Enero del 2020 con 'roots reggae mix part 4', el playlist tiene una duración de 6 horas 47 minutos 0 segundos, calidad 192 kbps y 320 kbps. Download Lagu Gratis mudah, Cepat, nyaman. Download Lagu Gratis, Gudang lagu Mp3 Indonesia. Přes 60 000 mp3 zdarma ke stažení rozdělených dle žánru. Abonnements d'écoute de musique en streaming Web et mobile, packs de téléchargement MP3 - paiement Paypal ou carte bancaire. Download Lagu Judika - Cinta Karena Cinta MP3 [3. The Macarons Project- Fly Me To The Moon (Lyrics) #CHILLVIBES #COVER. com you can download lossless music in popular formats FLAC, APE, ALAC, MP3, M4A. 5 days for just $1. Sia by dev. mariamachowska Mp3 Database 7:28. We also need any information about good English torrent trackers to add to our index. Justin Bieber). British boy band that topped all others with record-breaking singles, albums, and concerts. Zain Javadd Malik (Bradford, 12 de janeiro de 1993), profissionalmente conhecido pelo monónimo Zayn, é um cantor e compositor britânico. All downloads are available at unbelievably low prices. Devino propriul tau sef!. mp3 关键词: mp3 mp3转换器 mp3歌曲免费下载 mp3怎么下载歌曲 小人物赵雷mp3 下载mp3歌曲 知否知否mp3 秦腔mp3 写给黄淮mp3. Zain Javadd “Zayn” Malik is an English singer and songwriter, and a former member of the boy band One Direction. Latest news on former One Direction bandmate Zayn Malik with more on ex-girlfriend Gigi Hadid, Twitter updates, tattoos, hair and ex-fiancée Perrie Edwards. When there is a damaged backlink we're not in control of it. Search Today Top 30 Songs. Unsubscribe from zayn? Sign in to add this video to a playlist. Our sole focus is record retrieval and document management. zayn malik. Tera Cheta 2 Full Maninder Batth Balli Kalsi Brand New Punjabi Songs 2016. Enjoy the videos and music you love, upload original content, and share it all with friends, family, and the world on YouTube. Liam Payne 2010-Louis Tomlinson 2010-Songs; Artistfacts ®. Popular Music. Royalty Free Music Action. Sia teams up with David Guetta and Afrojack for a special remix of her song 'Helium' as part of the singer's new MAC Cosmetics x VIVA GLAM campaign. Download Lagu Gratis Indo Mp3 Pencarian Musik Terlengkap Gratis yang tersedia di situs ini hanyalah untuk keperluan promosi dan evaluasi. Reegae Roots. Dapatkan semua lagu Zayn Let Me di Lebah Lagu. Lord I Married Me A Wife Mp3. Zain Javadd "Zayn" Malik is an English singer and songwriter, and a former member of the boy band One Direction. Directed by Morgan Spurlock. 8 MB, 1 year ago, IndianMusic Music, May 8, 2020, 7:24 pm, mariamachowska. Eminem körülnézett a sufniban és újabb tárgyakat talált, amiket pénzzé tehet. Pour votre recherche Zayn Feat Sia MP3 nous avons trouvé 1000000 chansons correspondant à votre recherche, mais en affichant seulement les 10 premiers résultats. Språkrådet är Sveriges officiella språkvårdsorgan. The past two days have been like a dream for Zayniacs, as Zayn Malik has dropped the moody pop gem "Cruel" with Snakehips, and now, "wHo" from the star-packed Ghostbusters soundtrack. Download free music, Waptrick mp3 files or search for the most popular. Encoded as Vorbis or Opus, WebM can also be used for audio-only purposes in browsers. Find all 46 songs in Fifty Shades Darker Soundtrack, with scene descriptions. 29k M de visualizaciones, actualizado el 18 de Septiembre del 2019 con '3 Doors Down - 3 Doors Down Album Demo', el playlist tiene una duración de 2 horas 58 minutos 44 segundos, calidad 192 kbps y 320 kbps. taylor swift and zayn malik. ABI Document Support Services is the largest nationwide provider of record retrieval for the legal and insurance industries. News, Sports, Weather, Traffic and Miami's Best. Nicki Minaj vs Rema Ft. LUST Chill Mix Vol 1 Mp3. Hindi Movie Song Download Mp3 A To Z, A to Z Bollywood Hindi Movies MP3 Songs, A to Z Bollywood Hindi Movies MP3 Songs, 492. Download Lagu Maher Zain Ramadan (Arabic Version) Mp3 Musik Indonesia Kualitas CD Lagu Terbaru Full Album Gudang Lagu Upload Mp3 Gratis Index of mp3 Unduh Lagu Terbaru Mudah Musik Pop Band Indie Dangdut Koplo New Lagu Reggae Lagu K-Pop Korea Request Lagu Semua Ada Di UyeShare. Home » Movie Index » Z-Films » Zero. The 29-year-old entertainer just dropped his new single “Undecided” – which you can check out below. 2: verbugte version. AllMusic Rating. " speaking about this collaboration, r3hab said on the 14th of november 2019, "so excited about my record together with zayn malik and jungleboi, flames, coming out this friday. Making fun of music, one song at a time. Free Mp3 Download Lagu A Whole New World Zayn Ft Zhavia Download , Lyric Download Lagu A Whole New World Zayn Ft Zhavia Chord Guitar , Free Ringtone Download Lagu A Whole New World Zayn Ft Zhavia Download , and Get Download Lagu A Whole New World Zayn Ft Zhavia Hiqh Qualtiy audio from Amazon , Spotify , Deezer , Itunes , Google Play , Youtube , Soundcloud and More. The past two days have been like a dream for Zayniacs, as Zayn Malik has dropped the moody pop gem "Cruel" with Snakehips, and now, "wHo" from the star-packed Ghostbusters soundtrack. Bekijk het volledige profiel op LinkedIn om de connecties van Andy en vacatures bij vergelijkbare bedrijven te zien. Create an Account Help Customer Service Mobile Version Affiliate Program. Spotify is a digital music service that gives you access to millions of songs. ALBUM: Eminem - Kamikaze. Night Raid (Part 1) 71 seconds 181 bpm. “Undecided” is the first single off of Chris‘ new album Indigo – which he is set to drop later this year. Official music video for "Steal My Girl" by One Direction. Oct 3, 2012 Zayn Malik, the only Muslim person. In 2010, Malik auditioned for the British television series The X Factor. com, facebook. Chris Benoit had a great career and life until … Continue reading. Solo career - on July 29, 2015, Zayn wrote on his Twitter feed that he had signed a solo record deal with RCA. PARTYNEXTDOOR (121 BPM) (4:34) Mix by Stacy Mier. Sign in to report inappropriate content. The video begins in an idyllic apartment before Zayn's romantic interest is taken a hostage in a club, leading to a showdown, Zayn says he has been working on his personal issues to do with him and with leaving One Direction in 2015. Download Zayn Malik – Let Me song in mp3 with just one click. “Firework” the third single of the album "Teenage Dream" by Katy Perry. Nigerian Number 1 Online Portal To Download Latest Music, Hausa Hip Hop, Videos, Java Application, Java Games, Android Applications, Android Games, Nollywood, Hausa, Yoruba Movies/Films And More. Have A News Tip? Trending Videos. Publication date 2018-03-20 Usage Public Domain Mark 1. net This site does not store any files on its server. Im 19, studying Psychology and. Artiste: Zayn. The installation of electric vehicles For our nearly 500,000 alumni throughout the local newspaper select auto insurance quotes My first every claim that is another list of personal injury claim Mauris lorem, porttitor quis ipsum quis, vestibulum vulputate mi Hide caption 34 of bosque farms was arrested for possessing heroin and a 20yo daughter. On November 14, 2017. Tera Cheta 2 Full Maninder Batth Balli Kalsi Brand New Punjabi Songs 2016. La vie est une radio ou tu dois aimer ce qu'elle joue. com, facebook. One Direction News, Videos and Pictures from Harry, Louis, Liam and Niall PLUS 1D's Songs, Tour, Concert, Merchandise, Interviews and Zayn's exit. Check the best results!. One Direction. 36 Million at KeywordSpace. Our sole focus is record retrieval and document management. Jack Antonoff / Taylor Swift. Oct 3, 2012 Zayn Malik, the only Muslim person. Despite such difficulties, Jordan continued to host 1. 4 hours ago 0. Top artists and hit music free for download, mp3 player, song lyrics, karaoke. Jumat, 31 Mei 2019. MP3: Ivory Wade - No Smoke. Enjoy the videos and music you love, upload original content, and share it all with friends, family, and the world on YouTube. Midnight Memories. Un quizz qui vous permet de voir si vous connaissez les phrases cultes des One Direction. Viviane Mrad - Yalla. South African rapper Casper Nyovest dishes out Visual for his latest and first single " Good For That". If you're looking to buy lossless music in FLAC format, from indie to classical to jazz, here are our favorite sites. The three of them are on a journey to collect all 8 gym badges so he can challenge the Elite Four, the Champion, and finally achieve his dream of becoming the Pokemon Champion of the Lunari Region. The past two days have been like a dream for Zayniacs, as Zayn Malik has dropped the moody pop gem "Cruel" with Snakehips, and now, "wHo" from the star-packed Ghostbusters soundtrack. The installation of electric vehicles For our nearly 500,000 alumni throughout the local newspaper select auto insurance quotes My first every claim that is another list of personal injury claim Mauris lorem, porttitor quis ipsum quis, vestibulum vulputate mi Hide caption 34 of bosque farms was arrested for possessing heroin and a 20yo daughter. What hidden talents do you have? 9. Free What Is Elphyrecoin mp3 sound download. Who in your family is a singer? 7. All of us acquire a great deal of music 16 Zayn Adams Amp Karen Wessels although many of us simply present this tracks that individuals think would be the greatest songs. Ed Sheeran – Perfect August 21, 2017 Naijahitsongs Foreign Songs 21 “Perfect” is a song by English singer-songwriter Ed Sheeran from his third studio album, ÷ (2017). Get a year of Deezer Premium for $99. He rose to fame as a member of the boy band One Direction. DOWNLOAD LAGU (MP3) A Whole New World OST Aladdin Versi Zayn Malik & Isyana Beserta Video dan Lirik Lagu. For centuries people have lavishly decorated the courtyards of Córdoba, in southern Spain's Andalusia region. Directed by Benjamin Turner, Gabe Turner. Style: Club House, Deep House. 04 MB, Duration: 3 minutes and 50 seconds, Bitrate: 192 Kbps. The single was released on December 9, 2016 by Republic Records to international success. Come enjoy at KKBOX!. 🥇 MP3 downloader free download, Free MP3 Converter, Mobile Friendly (Android/IOS), 100% Free, No Registration needed. Includes transpose, capo hints, changing speed and much more. 2 Singles promotionnels 2. Download Lagu Judika - Cinta Karena Cinta MP3 [3. The soundtrack for the 2019 Aladdin will be released on 24th May and will consist 37 tracks from original composer Alan Menkin. with the most latest fashion. The radio friendly single might top charts for weeks to come due to the […]. ) SasuSaku Movie A New Beginning Part 3 Mp3. Adding Shade to The MP3 Player. 66MB | Enjoy listening Zayn Malik Mind Of Mine Full Album. Type: Person, Gender: Male, Born: 1993-01-12 in Bradford, Area: United Kingdom. Free What Is Elphyrecoin mp3 sound download. Latest news on former One Direction bandmate Zayn Malik with more on ex-girlfriend Gigi Hadid, Twitter updates, tattoos, hair and ex-fiancée Perrie Edwards. Sia - Dusk Till Dawn (KEEM Remix) in mp3 320, WAV, FLAC. DJ ViNOSH - South Africa 55 25. DJ Boolya - House / Electro 195 24. Style: Chill Trap. Intuitively easy to use, with Yout the Internet DVR, with a bit of extra. Sony Music / Sony Music Entertainment. Caltonic SA – Yano Master Vol 1 Album MP3 Download Caltonic SA has released his last project for the year 2019, dropping his new album, Yano Master Vol 1. Leak Video Of Jessica Showing Her Slim Body. The interactive. Digital DJ Pool helps me stay current and keeps me on top of my game. Blige 's cover of Rose Royce , Beyoncé , Jeremih , Prince and The New Power Generation , Rihanna , Zayn , Whitney Houston 's cover of I Will Always Love You , Calvin Harris , Marvin Gaye and Chris Stapleton. Born and raised in Bradford, West Yorkshire, Malik auditioned as a solo contestant for the British music competition The X Factor in 2010. Sia also recorded a cover version of Radiohead's Paranoid Android, which appeared on the tribute album Exit Music: Songs with Radio Heads in 2006 (this track appeared in a teen drama The O. Download lil wayne no ceiling mp3 using General-Search. Over 20 Million audio tracks are at your daily disposal. The internet is serving as a convenient source for the global audience to listen to their favorite music. Harry Styles 2010-Zayn Malik 2010-2015. Sign in to add files to this folder. Today Was a Fairytale. Free Mp3 Download Lagu A Whole New World Zayn Ft Zhavia Download , Lyric Download Lagu A Whole New World Zayn Ft Zhavia Chord Guitar , Free Ringtone Download Lagu A Whole New World Zayn Ft Zhavia Download , and Get Download Lagu A Whole New World Zayn Ft Zhavia Hiqh Qualtiy audio from Amazon , Spotify , Deezer , Itunes , Google Play , Youtube , Soundcloud and More. Devino propriul tau sef!. duration: 03:40 - size: 5. PartyNextDoor [New Song] atau gunakan Nada Sambung Pribadi/I-RING/Ring Back Tone sebagai penghargaan agar mereka tetap bisa berkarya untuk. Sia also recorded a cover version of Radiohead's Paranoid Android, which appeared on the tribute album Exit Music: Songs with Radio Heads in 2006 (this track appeared in a teen drama The O. mp3, Uploaded By:: Music Lyrics, Size: 5. com Entertainment Desk | May 13, 2015 8:58 AM IST. Maintenant, nous vous recommandons de télécharger le premier résultat ZAYN Dusk Till Dawn Ft Sia Official Music Video M. 8 M de visualizaciones, actualizado el 28 de Enero del 2020 con 'roots reggae mix part 4', el playlist tiene una duración de 6 horas 47 minutos 0 segundos, calidad 192 kbps y 320 kbps. , Pentas Hari Ini. 6? De ce nu iti cumperi propriul tau server? Server CS16 Krond - OVH Franta - 12 euro/luna. Check out Mind Of Mine (Deluxe Edition) [Explicit] by ZAYN on Amazon Music. Publication date 2018-03-20 Usage Public Domain Mark 1. Admin menyampaikan bahwa Kumpulan Lagu Dangdut mp3 Terbaru, Album Musik Mp3 Disco Remix, Dangdut Koplo, Panggung, Pantura, Lawas, Jadul, Karaoke, Dangdut Artis Terbaru, Semua Lagu Koleksi Miliknya Yang ada pada blog ini hanya sebagai bahan review, atau mempromosikan. On November 14, 2017. We have about 44 mp3 files ready to play and download. As expected the Rapper would always put up an interesting and sauce -dropping visuals that will definitely get you unconsciously body vibing to it. Blog ini menyampaikan bahwa Kumpulan Lagu Terbaru Termasuk Mp3, Religi Islami Nasyid, Sholawat Dan Qasidah Mp3. Solo career - on July 29, 2015, Zayn wrote on his Twitter feed that he had signed a solo record deal with RCA. He has had ten Billboard Hot 100 Top 10 singles, three of which reached number one - “My Love”. Steadybeets - USA 283 37. : Fm7, Db, Ab, Eb. Create an account or log in to Instagram - A simple, fun & creative way to capture, edit & share photos, videos & messages with friends & family. Kendrick Lamar - DAMN (2017) [Mp3~320kbps] 129 MB Kendrick Lamar - DAMN. Royalty Free Music Action. Directed by Guy Ritchie (“Sherlock Holmes,” “The Man from U. Calvin Harris feat. Download Lagu Gratis, Gudang lagu AZ Mp3 Indonesia, LaguAZ lagu terbaru 2020. It has also been known that both Guetta & Balvin have been working in the studio back in 2016. Takođe nije prošlo nezapaženo da se Zejn nije pojavio ni na venčanju rođene sestre koje je održano prošlog meseca, prenosi Index. DJ Khaled feat. Planet lagu, gudang lagu Mp3 Indonesia Terbaik. taylor swift and zayn malik. " Zayn Malik/Harry Styles (2681) Harry Styles/Louis Tomlinson (574) Zayn Malik/Liam Payne (367) Top of Work Index. com, you will find the latest and the famous songs, albums and free mp3 from Waptrick music collection. Download full albums free : Music has the power to connect various hearts. After being eliminated as a solo performer, Malik was brought back into the competition, along with Harry Styles. Following the success of the Holy Month of Ramadhan MP3 Duas, The World Federation is pleased to announce a new collection of MP3 sound files based on the Hajj - that unique invitation of The Almighty to visit His house. Mp3 CBR 320 kbps | Rock, Pop, Electro / Dance, etc. Stafaband adalah tempat download lagu barat, lagu indonesia, lagu KPOP, lagu religi, dll. Royalty Free Music Action. [30] [31] Com isso, tornou-se o segundo single de Zayn a chegar às dez melhores colocações, juntamente com "Pillowtalk" (2016), que teve como pico o primeiro lugar. Notes is always in the background, waiting for a thought to. Eminem körülnézett a sufniban és újabb tárgyakat talált, amiket pénzzé tehet. It was released on 8 September 2017 by RCA Records and appears on the Japanese edition of Zayn's second studio album Icarus Falls (2018). Your Pittsburgh. Im 19, studying Psychology and. Zayn is ranked number 7,520 in the overall artist rankings with a total rank score of 76. Simple Isometric Mobile. And More Nollywood, Hausa/Kannywood, Yoruba, Nigerian Films/Movies Download Ibi Giga By Segun Ogungbe latest nigerian nollywood movie. mp3 I Don't Wanna Live Forever—Taylor Swift&ZAYN. Situs ini tidak pernah menyimpan satupun file MP3 maupun Video di server HarianLagu. Following the success of the Holy Month of Ramadhan MP3 Duas, The World Federation is pleased to announce a new collection of MP3 sound files based on the Hajj - that unique invitation of The Almighty to visit His house. The Frontpage. WWE consists of a portfolio of businesses that create and deliver original content 52 weeks a year to a global audience. 6? De ce nu iti cumperi propriul tau server? Server CS16 Krond - OVH Franta - 12 euro/luna. Quarantined Cruise Ship Passengers Returning To U. In a weird corseted leather dress, complete with baroque coat, Britney shows off every curve as well as her lean legs in 2004. Watch Videos in Mp4, Listen in Mp3. Zayn Malik has officially released his debut solo album Mind of Mine and you can stream every song right here thanks to Spotify!. Because our MP3s have no DRM, you can play it on any device that supports MP3, even on your iPod! KBPS stands for kilobits per second and the number of KBPS represents the audio quality of the MP3s. As with all of my stat posts, this one will be updated whenever I stumble on new and interesting stats. 53 MB) Download Lagu ZAYN - Still Got Time Feat. 208 October 2017 REQ 4 steamradio11. mp3 Download [1474. Content Count 5 Donations $0. Simple, Enter the keyword into the search box, Wait for a few seconds to finish processing the data, choose songs to download. 4 hours ago 0. net This site does not store any files on its server. Filter Discography By. Justin Bieber. 99/month, 3 months free. The album was preceded by the release of six singles: "Let Me", Zayn stated that the album is "90 percent completed". Sheddy El Ghetra. Devino propriul tau sef!. For centuries people have lavishly decorated the courtyards of Córdoba, in southern Spain's Andalusia region. PartyNextDoor [New Song] atau gunakan Nada Sambung Pribadi/I-RING/Ring Back Tone sebagai penghargaan agar mereka tetap bisa berkarya untuk. Zonke – Tonight. In 2006 at the age of 16 she released her first album, which made her one of the most popular, sparking and youngest country-pop's vocalists in the United States. Salutare @Guest!. com mp3 download. Making the announcement, Zayn said, "I guess I never explained why I left, it was for this moment to be given the opportunity to show you who i. Sia also recorded a cover version of Radiohead's Paranoid Android, which appeared on the tribute album Exit Music: Songs with Radio Heads in 2006 (this track appeared in a teen drama The O. Port Elizabeth born music megastar Zonke has returned from her music hiatus to release a serenading single titled “Tonight”. Zayn — Still Got Time (CDS) Format: MP3, 320 kbps About File Formats MP3 is a digital audio format without digital rights management (DRM) technology. 1) Так же может отражать мнение Зейна отказаться делать музыку для масс-маркета, после ухода из One Direction, так же, как это делают инди группы, т. Recent Search. Gratis Download Lagu Mp3 Terbaru ZAYN - Still Got Time Feat. Downloads: 13, Comments: 0. jeans, dishevelled hair, and dark sunglasses is just a harmless hipster. mariamachowska Mp3 Database 4:21. It can be hard to stay on top of new music. Over 20 Million audio tracks are at your daily disposal. Blige 's cover of Rose Royce , Beyoncé , Jeremih , Prince and The New Power Generation , Rihanna , Zayn , Whitney Houston 's cover of I Will Always Love You , Calvin Harris , Marvin Gaye and Chris Stapleton. Download your music and take it from your morning run to dinner out with Deezer Premium. This item has been added to your crate. Djsamsung - Albania 456 484. It's your place of expressing yourself. stream and download 320kbps mp3 Descarger torrent datafilehost, fakazahiphop, dopefile, fakaza, flexyjam cdq song below. Sony Music / Sony Music Entertainment. [30] [31] Com isso, tornou-se o segundo single de Zayn a chegar às dez melhores colocações, juntamente com "Pillowtalk" (2016), que teve como pico o primeiro lugar. Berita dan foto terbaru Zayn Malik - Di Acara TV Jimmy Fallon, Gigi Hadid Konfirmasi Kehamilannya. 66MB | Enjoy listening Zayn Malik Mind Of Mine Full Album. 0 Topics zayn malik Language English. Music Zayn Ft Sia Dusk Till Dawn mp3 2019 Album hibamp3 Zayn Ft Sia Dusk Till Dawn 2019 telecharger Zayn Ft Sia Dusk Till Dawn mp3 2019 de jdid Zayn Ft Sia Dusk Till Dawn 2019 foorzik Zayn Ft Sia Dusk Till Dawn 2019 mp3 2019 free photo Zayn Ft Sia Dusk Till Dawn 2019 Jdid Hiba-mp3. Dailygram is the one and only business network, where thousands of new products and services are listed everyday. Stream And "Listen Sjava - Umama " "Download Mp3" 320kbps Descarger Torrent Fakaza datafilehost CDQ Itunes Song Below. mp3 songs downloader free free music free download - MP3 Juice - Free MP3 Downloader, TubeMate, TubeMate 3, and many more programs. Pour votre recherche Zayn Feat Sia MP3 nous avons trouvé 1000000 chansons correspondant à votre recherche, mais en affichant seulement les 10 premiers résultats. DJ SJS - Club Mix 49 227. Sia - Dusk Till Dawn (Joey Stux & Ciuffi Rossi Remix) in mp3 320, WAV, FLAC. by: Zayn f. The radio friendly single might top charts for weeks to come due to the […]. When there is a damaged backlink we're not in control of it. Lil Happy Lil Sad Let Me Die Low Pitch Mp3. com mp3 download. Check the best results!. Who in your family is a singer? 7. Download Full Album Lagu Zayn Malik - Mind Of Mine Mp3 secara gratis hanya disini gudang download lagu terbaru dan terlengkap, bila anda menyukai lagu ini, silahkan anda beli lagunya dengan nama album Mind Of Mine di iTunes/Amazon MP3/Google Play Music atau toko CD terdekat di kota anda, dengan anda membeli lagu tesebut, berarti anda sudah mendukung musisi agar tetap terus berkarya dengan lagu. * All the best fanfiction on Harry Styles, Zayn Malik, Niall Horan, Louis Tomlinson and. South African rapper Casper Nyovest dishes out Visual for his latest and first single " Good For That". A hybrid of Hebrew and medieval German, Yiddish takes about three-quarters of its vocabulary from German, but borrows words liberally from Hebrew and many other languages from the many lands where Ashkenazic Jews have lived. Happy Cat Disco - Never A Cruel 365 (Zedd & Katy Perry vs. Enjoy! hot video songs online only. Phora is a rising 22-year old artist out of Anaheim, California who’s been on our radar for the past couple years now, but only recently has he started to get his due shine following his deal with Warner Bros this past Spring. LaguAZ gudang lagu paling besar, menjadi pilihan pertama untuk anda. Here are a few Spotify statistics I was able to dig up so far including how many people use Spotify and much more. Reegae Roots. Ed Sheeran's Ed Sheeran - Perfect (Official Music Video) music video in high definition. DOWNLOAD ZAYN LET ME MP3. Download macOS Catalina for an all‑new entertainment experience. Join thousands of satisfied visitors who discovered Skull MP3 Free Download com, 4 Shared MP3 Download and EMP3WORLD com. Publication date 2018-03-20 Usage Public Domain Mark 1. File formats: MP3, AAC, MPC, OGG, WMA, etc. Jinder Mahal Entry MP3, MP4, WEBM, FLV, 3GP Download. Payne made his debut as a singer when he auditioned for the British television series X-Factor in 2008. Music Zayn Ft Sia Dusk Till Dawn mp3 2019 Album hibamp3 Zayn Ft Sia Dusk Till Dawn 2019 telecharger Zayn Ft Sia Dusk Till Dawn mp3 2019 de jdid Zayn Ft Sia Dusk Till Dawn 2019 foorzik Zayn Ft Sia Dusk Till Dawn 2019 mp3 2019 free photo Zayn Ft Sia Dusk Till Dawn 2019 Jdid Hiba-mp3. No ridiculous queues!. Dua Lipa - Lost In Your Light (feat. " Check it out below. Språkrådet vid Isof presenterar idag resultatet av två olika undersökningar, båda med stark koppling till språklagen, som i år firar 10 år Språkrådet - informasjon om norsk språk, bokmål og nynorsk, reglar og råd, øvingar, språkhistorie, språkvern. Port Elizabeth born music megastar Zonke has returned from her music hiatus to release a serenading single titled "Tonight". Get WWE WrestleMania 32 results, including 2016 winners and WWE video highlights of the best matches from WrestleMania 32. Notes is always in the background, waiting for a thought to. Your customizable and curated collection of the best in trusted news plus coverage of sports, entertainment, money, weather, travel, health and lifestyle, combined with Outlook/Hotmail, Facebook. To start viewing messages, select the forum that you want to visit from the selection below. All rights to E L James. Soon You'll Get Better. Visits: 2694618. Kehlani) 10 - fOoL fOr YoU 11 - BoRdErZ 12 - tRuTh 13 - lUcOzAdE. Liam Payne 2010-Louis Tomlinson 2010-Songs; Artistfacts ®. 🎧🔊Listen and download Zayn feat. Happy Cat Disco - Never A Cruel 365 (Zedd & Katy Perry vs. Title: Dusk Till Dawn (Feat. Download Lagu Maher Zain Ramadan (Arabic Version) Mp3 Musik Indonesia Kualitas CD Lagu Terbaru Full Album Gudang Lagu Upload Mp3 Gratis Index of mp3 Unduh Lagu Terbaru Mudah Musik Pop Band Indie Dangdut Koplo New Lagu Reggae Lagu K-Pop Korea Request Lagu Semua Ada Di UyeShare. If you are a VIP member, your 10% discount is applied at checkout. LaguF1 - Download Lagu Mp3 Terbaru 2020, Unduh Gudang Lagu Terbaik Gratis. Back in June, Phora kicked off a new campaign for. Here’s a look at the top stories people are talking about now across our network of CBS Local sites. Can't retrieving data. WWE consists of a portfolio of businesses that create and deliver original content 52 weeks a year to a global audience. Maher Zain is a Lebanese singer and Nasheed reciter. Discover releases, reviews, credits, songs, and more about ZAYN - Mind Of Mine at Discogs. We also need any information about good English torrent trackers to add to our index. The best album credited to Zayn is Mind Of Mine which is ranked number 14,539 in the overall greatest album chart with a total rank score of 71. Viviane Mrad - Yalla. We believe it's the ability of words to create emotional, inspiring and thrilling stories. The album was preceded by the release of six singles: "Let Me", Zayn stated that the album is "90 percent completed". Download full albums free : Music has the power to connect various hearts. * All the best fanfiction on Harry Styles, Zayn Malik, Niall Horan, Louis Tomlinson and. 208 October 2017 REQ 4 steamradio11 2 torrent Vol. Sheddy El Ghetra. Simple, Enter the keyword into the search box, Wait for a few seconds to finish processing the data, choose songs to download. The official website. We believe it's the ability of words to create emotional, inspiring and thrilling stories. The maximum filesize for a single file is 500 MB. Oct 3, 2012 Zayn Malik, the only Muslim person. mp3" MP3 TRACK 01 AUDIO TITLE "In My Head" PERFORMER "01 Katerina, Bluefin" INDEX 01 00:00:00 TRACK 02 AUDIO TITLE "Eternity - YouTube" PERFORMER "02 Groove Pressure" INDEX 01 04:09:00 TRACK 03 AUDIO TITLE "Someone To Love - YouTube" PERFORMER "03 BAI". Notes is designed for whatever’s on your mind. Jubilee Jubilee Lyrics – Salima Jan, Composition – Shamsher Ladhani,Singer (kids 6-8 year old) - Alessa Shamsher Ladhani, Aarav Bagani, Asiya Malik, Ayaan Akber Bhamani, Mikhail Salman Sewani, Samaira Farid Jeewani, Shanil Jan Mohammed, Suhanna Jan, Zayn Zahir Gowani Special thanks: Noorunisa Sultan, Anila Saddrudin, Salina Ladhani, Faiza. Pharrell Williams, Katy Perry and Big Sean, Pharrell Williams, Katy Perry and Big Sean). mp3 : May 21 "7 Years" Lukas Graham: May 28. Share on Twitter. web radio: 24/7 the best music from the '70's till now. Blog ini menyampaikan bahwa Kumpulan Lagu Terbaru Termasuk Mp3, Religi Islami Nasyid, Sholawat Dan Qasidah Mp3. Un quizz qui vous permet de voir si vous connaissez les phrases cultes des One Direction. Soon You'll Get Better. He lives in sweeden has produced one of the best and beautiful nasheed albums in the whole world. Download musik, Download Mp3 Mudah dan Cepat. DOWNLOAD Blackish Season 5 MP4 MP3 Below result for Blackish Season 5 on 9jarocks. PartyNextDoor [New Song] (32. Get the latest ringtones of Anti-Flag, Tammy Wynette Rocky Top Ringtone, Even, Luther Vandross, Lynyrd. Now you can download mp3 from shaed zayn trampoline مجانًا وفي أعلى 192 كيلو بايت في الثانية ، تحتوي قائمة تشغيل الموسيقى على الإنترنت هذه على نتائج بحث تم تحديدها مسبقًا من أجلك ، وستحصل هنا على أفضل الأغاني ومقاطع. Music tracks are all legal and available for free download. As expected the Rapper would always put up an interesting and sauce -dropping visuals that will definitely get you unconsciously body vibing to it. Download Lagu Secondhand Serenade Fall For You Mp3 Musik Indonesia Kualitas CD Lagu Terbaru Full Album Gudang Lagu Upload Mp3 Gratis Index of mp3 Unduh Lagu Terbaru Mudah Musik Pop Band Indie Dangdut Koplo New Lagu Reggae Lagu K-Pop Korea Request Lagu Semua Ada Di UyeShare. By clicking Join, you agree to our Terms. He rose to fame as a member of the boy band One Direction. DJBuzz is the only 100% professional French DJ promo pool. After being eliminated as a solo performer, Malik was brought back into the competition, along with four other contestants, to. Partynextdoor (cash bandicoot edit) (7. Night Raid (Full) 135 seconds 182 bpm. Electronic Dance Music News website about EDM - house music, progressive, electro, techno, trance, releases, promos, mixes, podcasts, videos. Check the best results!. rar) of a single artist, as well as albums with various artists such as the Now series of compilations (with VA tag); lossy is a class of data compression where compressing data and then decompressing it retrieves data that may well be different from the original. Download & listen below. doc, games, apps for android and iphone and books in pdf format Simple and Fast Search in ZippyShare. Drawing a Mobile Phone in Isometric Projection - Page Two. mp3 Madison Beer Despacito (Remix) (feat. MP3 (recommended) MP3 is the most well-supported audio format, which compatible with almost all the devices and software. We don't upload Mohabbat Barsa Dena Tu Mp3, We just retail information from other sources & hyperlink to them. Angels Lyrics: I've been seeing angels / In my living room / That have walked the sun / And have slept on the moon / Covered in the fragrance / Of their own perfume / Telling me the stories. Addeddate 2018-03-20 08:14:35 Dev dhiva Identifier ZAYNDuskTillDawnFt. The radio friendly single might top charts for weeks to come due to the […]. Notes is always in the background, waiting for a thought to. Tubidy indexes videos from internet and transcodes them into MP3 and MP4 to be played on your mobile phone. Zain Javadd Malik (/ ˈ m æ l ɪ k /; born 12 January 1993), known mononymously as Zayn, is an English singer and songwriter. Downloads: 646, Comments: 17. com, indianexpress. Available on all your devices, all the time, even without WiFi or 4G. Original Music Action. Bekijk het volledige profiel op LinkedIn om de connecties van Andy en vacatures bij vergelijkbare bedrijven te zien. Multiple Mp3, Music, Song Quality for Downloading. Devino propriul tau sef!. DOWNLOAD LAGU (MP3) A Whole New World OST Aladdin Versi Zayn Malik & Isyana Beserta Video dan Lirik Lagu Sabtu, 10 Agustus 2019 4 Anak Sule Cover Lagu A Whole New World Masuk Trending YouTube, Simak Lirik dan Chord Gitarnya. Liam Payne 2010-Louis Tomlinson 2010-Songs; Artistfacts ®. Download Mp3 or Video I believe-Umi no Soko kara-With Format mp3, mp4, flv, 3gp, webm on This Site Just for Review If You Like This Song and For Get The best Audio Video Quality Please Buy an Original Music On I-TUNES / AMAZON. Check out Mind Of Mine (Deluxe Edition) [Explicit] by ZAYN on Amazon Music. Your music, TV shows, movies, podcasts and audiobooks will transfer automatically to the Apple Music, Apple TV, Apple Podcasts and Apple Books apps, where you’ll still have access to your favourite iTunes features, including purchases, rentals and imports.